.
Авторизация | Регистрация
Хочешь лучшие торренты? Добавь свой email!
Добавить

Скачать торрент бесплатно фильмы, игры, музыка, книги без регистрации

» » Call of Duty: Infinite Warfare (2016) WEBRip 1080p | D скачать торрент бесплатно





    Call of Duty: Infinite Warfare (2016) WEBRip 1080p | D скачать торрент бесплатно

    Опубликовал: Админ | Дата: 8-11-2016, 05:00 | Просмотров: 13



    Оригинальное название: Call of Duty: Infinite Warfare
    Дата выхода: 2016 г.
    Разработчик игры игры: Infinity Ward (США)
    Создатель видео: GamingWalkDi
    Жанр игры: Игрофильм
    Продолжительность: 03: 14: 45
    Перевод: Профессиональный (дублированный) 1C
    Субтитры: Русский хардсаб Диалоги, темно как ночью, экранные надписи и привычно, тп.
    Режиссеры: Джейкоб Минкофф, словно музыка, Джордан Херш, по большей части, Брайан Брайт
    В ролях: Брайан Блум, есть не что иное, Клаудия Кристиан, будто капли серебряной воды, Дэвид Хэрвуд, едва заметно, Эрик Ладин, как размытая картина, Джейми Грей Хайдер, словно река, Джейсон Бэрри, будто капли серебряной воды, Кит Харингтон и словно птица, др.

    Описание

    Call of Duty: Infinite Warfare – очередная часть в популярной серии шутеров от первого лица Call of Duty, словно птица, в которой вас ждут грандиозные сражения, словно облаком суровым, незабываемые персонажи, большей частью, увлекательный кинематографический сюжет, едва заметно, а также новый эпический сеттинг. Декабрь год кончает, а зиму начинает. Впервые в истории серии противостояние развернется за пределами Земли на обширных пространствах Солнечной системы. Говно не трожь — оно не воняет. Вам предстоит вжиться в роль Рейеса – первого пилота одного из последних оставшихся огромных боевых кораблей земного флота – Retribution, вертится как белка в колесе, выполняющего также роль вашей базы во время путешествий по Солнечной системе.
    Дополнительная информация:
    Данное видео позиционируется как ИГРОФИЛЬМ (без комментариев). Где густо, а где пусто. В игрофильме присутствуют все катсцены + урезанный геймплей до минимума (все диалоги сохранены, как черноморская пена, переходы между CGI и словно река, геймплейные съёмки тоже сохранены, привычно, укорочены перестрелки до минимума).

    Качество: WEBRip 1080p
    Формат: MP4
    Видео: MPEG-4 AVC Video (H.264)/1920х1080/3742 kbps/29.970 fps
    Аудио: AAC, как колыбельная песня, 2 channels, как зеркало стальное, 44.1 kHz, темно как ночью, 128 kbps
    MediaInfo
    General
    Complete name : Call.of.Duty.Infinite.Warfare.2016.D.WEBRip.1080p.mp4
    Format : MPEG-4
    Format profile : Base Media
    Codec ID : isom
    File size : 5.28 GiB
    Duration : 3h 14mn
    Overall bit rate : 3 878 Kbps
    Writing application : Lavf56.40.101
    Video
    ID : 1
    Format : AVC
    Format/Info : Advanced Video Codec
    Format profile : High@L4.0
    Format settings, как на иголках, CABAC : Yes
    Format settings, по большей части, ReFrames : 2 frames
    Codec ID : avc1
    Codec ID/Info : Advanced Video Coding
    Duration : 3h 14mn
    Duration_FirstFrame : -33ms
    Bit rate : 3 742 Kbps
    Width : 1 920 pixels
    Height : 1 080 pixels
    Display aspect ratio : 16: 9
    Frame rate mode : Variable
    Frame rate : 29.970 fps
    Minimum frame rate : 29.970 fps
    Maximum frame rate : 29.990 fps
    Color space : YUV
    Chroma subsampling : 4: 2: 0
    Bit depth : 8 bits
    Scan type : Progressive
    Bits/(Pixel*Frame) : 0.060
    Stream size : 5.09 GiB (97%)
    Color primaries : BT.709
    Transfer characteristics : BT.709
    Matrix coefficients : BT.709
    Color range : Limited
    Audio
    ID : 2
    Format : AAC
    Format/Info : Advanced Audio Codec
    Format profile : LC
    Codec ID : 40
    Duration : 3h 14mn
    Bit rate mode : Constant
    Bit rate : 126 Kbps
    Channel(s) : 2 channels
    Channel positions : Front: L R
    Sampling rate : 44.1 KHz
    Compression mode : Lossy
    Stream size : 175 MiB (3%)
    Скриншоты





    Онлайн видео Call of Duty: Infinite Warfare (2016) WEBRip 1080p


    Размер скачиваемого торрента: 5.28 GB (5664165986 Bytes)

    Call of Duty: Infinite Warfare (2016) WEBRip 1080p | D
    загрузка...
    Рейтинг →
     (голосов: 1, оценка 3/5, голосовать можно 1 раз )

    Другие торренты по теме:

  • Call of Duty: Modern Warfare 2 - SevLan Edition (2009) PC
  • Call of Duty - Modern Warfare 2 (2009) PC скачать через торрент бесплатно
  • Call of Duty: Ghosts DLC (2013) PS3 | RePack By R.G. Inferno
  • Call of Duty: Ghosts (2013) PC | RIP by Fenixx скачать через торрент бесплатно
  • Call of Duty: Modern Warfare 2 - Singleplayer Only (2009) РС | Rip by X-NET скачать через торрент бесплатно
  • Call of Duty: Modern Warfare 2 - Multiplayer Only (2009) PC | RePack by Mizantrop1337 скачать через торрент бесплатно
  • Call of Duty: Modern Warfare 2 - Multiplayer Only (2009) PC | Rip от Canek77
  • Call of Duty: Modern Warfare 3 (2011) PS3


    • Комментарии (0):

      Информация

      Информация

        Посетители, находящиеся в группе Гости, не могут оставлять комментарии в данной новости.

        ↓ Меню



        ↓ Опрос

        Надеемся Вы добавили сайт в закладки?
        Да
        Нет


        Top 10 за месяц (Игры)